#TITLE:PARANOiA~Sky~;
#SUBTITLE:~DanteX re-edit~;
#ARTIST:NW180;
#TITLETRANSLIT:;
#SUBTITLETRANSLIT:;
#ARTISTTRANSLIT:;
#CREDIT:;
#BANNER:PSky-bn.png;
#BACKGROUND:PSky-bg.png;
#LYRICSPATH:;
#CDTITLE:DanteX1.gif;
#MUSIC:Tr.47-PARANOiA~Sky~.mp3;
#OFFSET:-0.125;
#SAMPLESTART:104.820;
#SAMPLELENGTH:12.000;
#SELECTABLE:YES;
#DISPLAYBPM:181.000:90.000;
#BPMS:0.000=181.000,172.000=90.500,180.000=135.750,192.000=181.000,302.000=90.500,303.000=181.000;
#STOPS:;
#BGCHANGES:;
// cache tags:
#FIRSTBEAT:0.000;
#LASTBEAT:379.750;
#SONGFILENAME:Songs/Chilean Keyboard Megapack 3/(DanteX) Paranoia~sky~/Paranoia Sky.sm;
#HASMUSIC:1;
#HASBANNER:1;
#MUSICLENGTH:130.043;
// end cache tags

//---------------dance-single - ----------------
#NOTES:
     dance-single:
     :
     Challenge:
     11:
     1.000,1.000,0.892,0.185,1.000,1196.000,116.000,24.000,0.000,0.000:
0001
0100
0001
0000
0100
0001
0100
0000
1000
0100
1000
0000
0010
1000
0010
0000
,
0001
0010
0001
0000
0100
0001
0100
0000
1000
0100
1000
0000
0010
1000
0010
0000
,
0001
1000
0001
0000
0100
0010
0100
0000
1000
0001
1000
0000
0010
0100
0010
0000
,
1000
0010
1000
0000
0001
0000
0010
0100
0010
0001
1000
0000
0120
0000
1030
0000
,
0100
0001
0100
0000
0010
0000
1000
0100
0010
0001
0100
0000
0001
1000
0001
0000
,
0100
0010
0100
0000
0001
0000
1000
0001
0010
0100
0010
0000
0102
0000
1003
0000
,
0100
0001
0100
0000
0001
0000
1000
0100
0001
0100
1000
0010
0100
0000
0011
0000
,
1000
0010
1000
0000
0001
0000
0010
0001
0100
0010
1000
0000
0021
0000
0130
0000
,
1000
0001
1000
0000
0001
0000
0010
0100
1000
0001
1000
0000
0010
0100
0010
0000
,
1000
0001
1000
0000
0001
0000
0010
0001
0100
0010
0100
0000
0210
0000
0301
0000
,
1000
0010
1000
0000
0001
0000
0010
1000
0010
0100
1000
0001
0100
0000
1010
0100
,
1000
0000
1000
0000
1100
0000
0000
0010
0001
0010
0001
0000
0101
0000
0010
0000
,
0001
0000
0001
0000
0101
0000
0000
0010
1000
0010
1000
0000
1100
0001
0010
0000
,
1000
0000
0001
0000
0110
0000
0000
0100
1000
0100
0001
0000
0011
0000
0100
0000
,
0001
0000
1000
0000
0110
0000
0000
0100
0001
0100
1000
0000
0101
1000
0010
0000
,
1100
0000
1100
0000
1010
0000
0000
0100
0001
0100
0001
0000
1010
0000
0110
0000
,
0011
0000
0011
0000
0101
0000
0000
0010
1000
0010
1000
0000
0101
0000
0110
0000
,
0001
0000
0001
0000
0001
0100
0010
1000
0010
0100
0001
0000
0110
0000
0001
0000
,
1000
0000
1000
0000
1000
0100
1000
0100
0010
0001
0010
0100
1000
0010
0100
0001
,
0010
0000
0010
0000
0120
0000
0000
0031
1000
0010
0100
0000
0101
0000
0110
0000
,
1000
0000
1000
0000
1020
0000
0000
0130
0001
0010
0100
0000
1100
0000
0110
0000
,
1000
0000
1000
0000
2100
0000
0000
3100
0010
0001
0010
0000
0101
0000
0010
0000
,
0001
0000
0001
0000
0201
0000
0000
0310
1000
0001
0100
0000
1010
0000
1001
0000
,
0110
0000
0110
0000
0102
0000
0000
1003
0100
0010
0001
0000
0101
0000
0110
0000
,
1010
0000
1010
0000
0201
0000
0000
0310
1000
0001
0010
0000
0011
0000
0110
0000
,
1000
0000
0010
0000
0102
0000
0000
0013
0100
1000
0100
0000
0012
0000
0103
0000
,
0010
0000
1000
0000
0120
0000
0000
1030
0001
0010
0100
0000
0012
0000
0000
0000
,
1003
0100
1000
0100
0010
0001
0100
0000
0001
0100
0001
0100
0010
1000
0100
0000
,
1000
0001
0010
0001
0010
0100
1000
0000
0001
1000
0010
1000
0010
0100
0001
0000
,
1000
0100
1000
0001
1000
0100
1000
0000
0001
0100
0001
1000
0001
0100
0001
0000
,
0010
1000
0010
0100
0010
0001
0100
0000
0010
0001
0010
0100
0010
1000
0100
0000
,
1000
0100
0010
0001
0100
0001
1000
0000
0001
0100
0010
1000
0100
1000
0001
0000
,
1000
0010
0100
0001
1000
0010
1000
0000
0001
0010
0100
1000
0001
0010
0001
0000
,
1000
0100
0001
0100
1000
0010
0100
0000
0001
0100
1000
0100
0001
0010
0100
0000
,
1000
0010
0100
0010
1000
0001
0010
0000
0001
0010
0100
0010
0001
1000
0010
0000
,
1000
0100
1000
0000
0001
0010
0001
0000
0110
0000
0110
0000
2010
0000
3001
0000
,
1000
0100
0010
0000
0001
0100
0010
0000
1001
0000
1001
0000
0102
0000
0013
0000
,
1000
0100
1000
0000
1000
0100
1000
0000
1000
0001
1000
0000
1000
0010
1000
0000
,
0001
0100
0001
0000
0001
0100
0001
0000
0001
1000
0001
0000
0001
0010
0001
0000
,
1000
0100
1000
0100
0001
0000
1000
0100
1000
0001
1000
0000
0012
0000
1003
0000
,
0001
0100
0001
0100
1000
0000
0001
0100
0001
1000
0100
0000
0120
0000
0031
0000
,
1000
0100
0010
0000
0010
0001
0100
0000
0100
0010
1000
0000
2010
0000
3010
0000
,
0001
1000
0100
0000
0100
0010
0001
0000
0001
1000
0010
0000
0120
0000
0130
0000
,
1000
0000
0010
0000
1010
0000
0010
0100
0001
0000
1000
0000
1100
0000
0001
0000
0010
0000
0100
0000
0110
0000
0100
1000
0001
0000
0100
0000
1010
0000
0001
0000
,
0100
0000
0001
0000
0101
0000
0100
0001
1000
0100
1000
0000
0011
0000
0100
0000
0001
0000
1000
0000
1001
0000
0001
0010
0100
0010
0001
0000
1100
0000
0001
0000
,
1000
0000
0000
0100
0000
0000
1000
0000
0000
0100
0000
0000
1000
0000
0000
0001
0000
0000
1000
0000
0000
0001
0000
0000
0100
0000
0000
0010
0000
0000
0100
0000
0000
0010
0000
0000
0100
0000
0000
0001
0000
0000
0100
0000
0000
0001
0000
0000
0010
0000
0000
0001
0000
0000
0010
0000
0000
0001
0000
0000
1000
0000
0000
0010
,
0000
0000
1000
0000
0000
0010
0000
0000
0100
0000
0000
0010
0000
0000
0100
0000
0000
0010
0000
0000
1000
0000
0000
0001
0000
0000
1000
0000
0000
0001
0000
0000
1000
0000
0000
0100
0000
0000
1000
0000
0000
0001
0000
0000
0100
0000
0000
0001
0000
0000
0100
0000
0000
0010
0000
0000
1000
0000
0000
0010
0000
0000
1000
0000
,
0000
0001
0000
0000
0010
0000
0000
0001
0000
0000
0100
0000
0000
0010
0000
0000
1000
0000
0000
0100
0000
0000
0010
0000
0000
0001
0000
0000
1000
0000
0000
0010
0000
0000
0100
0000
0000
0001
0000
0000
1000
0000
0000
0001
0000
0000
0100
0000
0000
0010
0000
0000
1000
0000
0000
0001
0000
0000
0100
0000
0000
0010
0000
0000
,
1100
0000
0010
0000
1000
0000
0010
0000
0100
0000
0001
0000
0010
0001
0010
0000
,
0011
0000
0100
0000
1000
0000
0100
0000
0010
0000
0001
0000
0100
0010
0100
0000
,
0101
0000
0010
0000
1000
0000
0100
0000
0010
0001
0010
0000
0100
1000
0100
0000
,
1010
0000
0010
0000
1000
0000
0001
0000
0100
0001
0100
0000
0010
1000
0010
0000
,
1001
0000
0100
0000
0010
0001
0010
0000
0100
1000
0100
0000
0010
0001
1000
0000
,
0110
0000
0010
0000
0100
0010
0100
0000
0001
1000
0001
0000
0100
0001
1000
0000
,
0101
0000
1000
0100
1000
0000
0001
0010
0001
0000
0100
0010
0100
0000
0001
0000
,
0101
0000
1000
0100
1000
0000
0010
0100
0010
0000
1000
0001
1000
0000
0001
0000
,
1100
0000
0001
0010
0001
0100
0001
0000
1000
0010
0100
0000
0001
1000
0100
0000
,
1001
0000
0100
0010
0100
0001
0100
0000
0010
1000
0010
0000
0100
0001
1000
0000
,
1001
0000
0100
0010
0100
1000
0001
0000
0100
0010
1000
0000
0001
0010
0001
0100
,
1010
0000
0001
0100
0010
0100
0001
0000
1000
0100
0010
0000
0001
1000
0100
0010
,
1001
0100
1000
0000
0001
0010
0001
0100
0010
1000
0100
0000
0010
0001
0010
0100
,
1100
0001
0010
0000
0001
1000
0001
0100
0010
1000
0100
0000
0010
0001
0100
0010
,
0101
0000
1000
0100
1000
0001
0100
0010
0100
0001
1000
0100
0010
0001
0010
0100
,
1001
0000
0010
0100
0010
1000
0001
0010
0001
0100
0010
1000
0100
0010
0001
0100
,
1010
0001
0100
0001
1000
0100
0010
0100
1000
0010
1000
0001
0100
0010
1000
0001
,
0101
0010
1000
0010
0100
0001
1000
0100
0010
0001
0010
0100
1000
0001
0100
0010
,
1001
0100
0011
1000
0110
0001
1100
0010
,
0101
0000
1000
0000
0110
0000
0001
0000
1100
0000
0010
0000
0100
0010
0100
0000
,
1001
0000
0100
0010
0100
1000
0001
0000
0101
0000
0010
0000
2100
0000
3001
0000
,
0110
0000
1000
0100
1000
0001
0100
0000
1010
0000
0100
0000
0012
0000
1003
0000
,
1001
0100
1000
0000
0001
1000
0100
0010
0001
0010
0100
0000
1000
0010
0001
0000
,
1010
0100
0001
0000
1000
0001
0100
0010
1000
0010
0100
0000
0001
0100
1000
0000
,
1001
0000
0010
0000
0110
1000
0001
1000
0110
0000
1000
0000
0110
0000
0001
0000
,
1100
0000
0010
0000
1001
0010
0100
0010
1001
0000
0100
0000
0011
0000
1000
0000
,
0101
0000
1000
0000
1010
0001
0100
0001
1100
0000
0010
0000
0101
0000
0010
0000
,
1001
0000
0100
0000
0011
0100
1000
0100
1002
0000
0000
0000
1003
0100
1000
0100
,
0010
0001
0010
0001
0100
0010
0100
0010
1000
0010
1000
0010
1000
0001
1000
0001
,
0100
0001
0100
0001
0100
0010
0100
0010
1000
0001
1000
0001
0010
0001
0010
0001
,
1000
0100
1000
0100
1000
0010
1000
0010
0100
0001
0100
0001
0010
0001
0010
0001
,
0100
0010
0100
0010
1000
0010
1000
0010
0100
0001
0100
0001
1000
0100
0001
0100
,
1000
0010
0100
0001
0010
0001
0010
1000
0010
0001
0100
0010
1000
0001
0010
0001
,
0100
1000
0100
0010
1000
0001
0010
0001
0100
0010
1000
0100
0001
0100
1000
0010
,
0100
0001
0010
0001
0010
1000
0010
0001
0100
0010
0100
0001
0010
0100
1000
0100
,
0001
0100
0010
0001
0100
0010
0001
0010
1000
0100
0010
0100
1000
0010
0001
0010
,
1000
0100
0010
1000
0010
0100
1000
0010
0001
0010
0100
0001
1000
0100
0010
1000
,
0010
0100
1000
0010
0100
0001
0010
0001
0100
1000
0100
0010
0001
0010
1000
0100
,
0010
0001
0100
1000
0100
0010
1000
0100
0010
0001
0010
1000
0010
0100
0010
0001
,
0100
0010
0100
1000
0100
0001
0010
0100
0010
1000
0010
0100
1000
0001
0100
0010
,
1000
0001
0100
0010
1000
0100
0001
0100
1000
0010
0001
0010
1000
0001
0010
0100
,
1000
0001
0010
0100
1000
0010
0001
0010
1000
0100
0001
0100
1000
0010
0100
0001
,
0010
0100
1000
0010
0100
0001
0100
1000
0100
0010
1000
0001
0010
0100
0010
0001
,
0100
0010
0100
0001
1000
0100
1000
0010
0100
0010
1000
0001
0010
0100
0000
1000
,
0100
0000
0100
1000
0000
0001
1000
0000
0010
1000
0000
0010
0100
0000
0001
0010
,
0000
0010
0001
0000
0100
0010
0000
0100
0001
0000
1000
0100
0000
0001
0100
0000
,
0010
1000
0000
0001
1000
0000
0100
0010
0000
0010
0001
2000
0000
0000
0000
3000
;
